Loading

Paste #pzqfvkiie

Permalink: http://pastebox.in/pzqfvkiie
  1. General
  2. Complete name                            : downloads/You Are Too Much (1080p)/You.Are.Too.Much.E50.END.170827.1080p-NEXT.mp4
  3. Format                                   : MPEG-4
  4. Format profile                           : Base Media
  5. Codec ID                                 : isom
  6. File size                                : 2.53 GiB
  7. Duration                                 : 1h 6mn
  8. Overall bit rate mode                    : Variable
  9. Overall bit rate                         : 5 435 Kbps
  10. Writing application                      : MH ENCODER
  11.  
  12. Video
  13. ID                                       : 1
  14. Format                                   : AVC
  15. Format/Info                              : Advanced Video Codec
  16. Format profile                           : [email protected]
  17. Format settings, CABAC                   : Yes
  18. Format settings, ReFrames                : 1 frame
  19. Format settings, GOP                     : M=1, N=30
  20. Codec ID                                 : avc1
  21. Codec ID/Info                            : Advanced Video Coding
  22. Duration                                 : 1h 6mn
  23. Bit rate                                 : 5 111 Kbps
  24. Width                                    : 1 920 pixels
  25. Height                                   : 1 080 pixels
  26. Display aspect ratio                     : 16:9
  27. Frame rate mode                          : Constant
  28. Frame rate                               : 29.970 fps
  29. Color space                              : YUV
  30. Chroma subsampling                       : 4:2:0
  31. Bit depth                                : 8 bits
  32. Scan type                                : Progressive
  33. Bits/(Pixel*Frame)                       : 0.082
  34. Stream size                              : 2.38 GiB (94%)
  35.  
  36. Audio
  37. ID                                       : 2
  38. Format                                   : AAC
  39. Format/Info                              : Advanced Audio Codec
  40. Format profile                           : LC
  41. Codec ID                                 : 40
  42. Duration                                 : 1h 6mn
  43. Bit rate mode                            : Variable
  44. Bit rate                                 : 320 Kbps
  45. Channel(s)                               : 2 channels
  46. Channel positions                        : Front: L R
  47. Sampling rate                            : 48.0 KHz
  48. Compression mode                         : Lossy
  49. Stream size                              : 152 MiB (6%)
PasteBox 2015-2016.
Just "Fancy" text.
Max size: 2Mb.