Loading

Paste #psk8kzpgo

Permalink: http://pastebox.in/psk8kzpgo
  1. General
  2. Complete name                            : downloads/School 2017 (1080p)/School.2017.E16.END.170905.1080p-NEXT.mp4
  3. Format                                   : MPEG-4
  4. Format profile                           : Base Media
  5. Codec ID                                 : isom
  6. File size                                : 2.39 GiB
  7. Duration                                 : 1h 3mn
  8. Overall bit rate                         : 5 365 Kbps
  9. Writing application                      : MH ENCODER
  10.  
  11. Video
  12. ID                                       : 1
  13. Format                                   : AVC
  14. Format/Info                              : Advanced Video Codec
  15. Format profile                           : [email protected]
  16. Format settings, CABAC                   : Yes
  17. Format settings, ReFrames                : 1 frame
  18. Format settings, GOP                     : M=1, N=30
  19. Codec ID                                 : avc1
  20. Codec ID/Info                            : Advanced Video Coding
  21. Duration                                 : 1h 3mn
  22. Bit rate                                 : 5 041 Kbps
  23. Width                                    : 1 920 pixels
  24. Height                                   : 1 080 pixels
  25. Display aspect ratio                     : 16:9
  26. Frame rate mode                          : Constant
  27. Frame rate                               : 29.970 fps
  28. Color space                              : YUV
  29. Chroma subsampling                       : 4:2:0
  30. Bit depth                                : 8 bits
  31. Scan type                                : Progressive
  32. Bits/(Pixel*Frame)                       : 0.081
  33. Stream size                              : 2.24 GiB (94%)
  34.  
  35. Audio
  36. ID                                       : 2
  37. Format                                   : AAC
  38. Format/Info                              : Advanced Audio Codec
  39. Format profile                           : LC
  40. Codec ID                                 : 40
  41. Duration                                 : 1h 3mn
  42. Bit rate mode                            : Constant
  43. Bit rate                                 : 317 Kbps
  44. Channel(s)                               : 2 channels
  45. Channel positions                        : Front: L R
  46. Sampling rate                            : 48.0 KHz
  47. Compression mode                         : Lossy
  48. Stream size                              : 145 MiB (6%)
PasteBox 2015-2016.
Just "Fancy" text.
Max size: 2Mb.