Loading

Paste #pjd2wjcxb

Permalink: http://pastebox.in/pjd2wjcxb
  1. Exact Audio Copy V1.0 beta 3 from 29. August 2011
  2.  
  3. EAC extraction logfile from 2. June 2015, 11:33
  4.  
  5. Florence + The Machine / How Big, How Blue, How Beautiful
  6.  
  7. Used drive  : TSSTcorpDVD+-RW SH-216CB   Adapter: 0  ID: 0
  8.  
  9. Read mode               : Secure
  10. Utilize accurate stream : Yes
  11. Defeat audio cache      : Yes
  12. Make use of C2 pointers : No
  13.  
  14. Read offset correction                      : 6
  15. Overread into Lead-In and Lead-Out          : No
  16. Fill up missing offset samples with silence : Yes
  17. Delete leading and trailing silent blocks   : No
  18. Null samples used in CRC calculations       : Yes
  19. Used interface                              : Native Win32 interface for Win NT & 2000
  20. Gap handling                                : Appended to previous track
  21.  
  22. Used output format              : User Defined Encoder
  23. Selected bitrate                : 1024 kBit/s
  24. Quality                         : High
  25. Add ID3 tag                     : No
  26. Command line compressor         : C:\Program Files (x86)\Exact Audio Copy\FLAC\FLAC.EXE
  27. Additional command line options :  -8 -V -T "ARTIST=%artist%" -T "TITLE=%title%" -T "ALBUM=%albumtitle%" -T "DATE=%year%" -T "TRACKNUMBER=%tracknr%" -T "GENRE=%genre%" -T "PERFORMER=%albuminterpret%" -T "COMPOSER=%composer%" %haslyrics%--tag-from-file=LYRICS="%lyricsfile%"%haslyrics% -T "ALBUMARTIST=%albumartist%" -T "DISCNUMBER=%cdnumber%" -T "TOTALDISCS=%totalcds%" -T "TOTALTRACKS=%numtracks%" -T "COMMENT=%comment%" %source% -o %dest%
  28.  
  29.  
  30. TOC of the extracted CD
  31.  
  32.      Track |   Start  |  Length  | Start sector | End sector
  33.     ---------------------------------------------------------
  34.         1  |  0:00.00 |  3:54.39 |         0    |    17588  
  35.         2  |  3:54.39 |  3:36.17 |     17589    |    33805  
  36.         3  |  7:30.56 |  5:34.58 |     33806    |    58913  
  37.         4  | 13:05.39 |  5:07.25 |     58914    |    81963  
  38.         5  | 18:12.64 |  4:09.06 |     81964    |   100644  
  39.         6  | 22:21.70 |  4:53.35 |    100645    |   122654  
  40.         7  | 27:15.30 |  3:15.06 |    122655    |   137285  
  41.         8  | 30:30.36 |  4:24.02 |    137286    |   157087  
  42.         9  | 34:54.38 |  4:20.15 |    157088    |   176602  
  43.        10  | 39:14.53 |  3:45.05 |    176603    |   193482  
  44.        11  | 42:59.58 |  5:49.70 |    193483    |   219727  
  45.        12  | 48:49.53 |  3:52.58 |    219728    |   237185  
  46.        13  | 52:42.36 |  4:01.36 |    237186    |   255296  
  47.        14  | 56:43.72 |  4:19.16 |    255297    |   274737  
  48.        15  | 61:03.13 |  4:15.66 |    274738    |   293928  
  49.        16  | 65:19.04 |  4:32.69 |    293929    |   314397  
  50.        17  | 69:51.73 |  4:08.06 |    314398    |   333003  
  51.        18  | 74:00.04 |  4:52.02 |    333004    |   354905  
  52.  
  53.  
  54. Track  1
  55.  
  56.      Filename C:\EAC\01 - Ship To Wreck.wav
  57.  
  58.      Pre-gap length  0:00:02.00
  59.  
  60.      Peak level 100.0 %
  61.      Extraction speed 2.0 X
  62.      Track quality 100.0 %
  63.      Test CRC 74FD340F
  64.      Copy CRC 74FD340F
  65.      Track not present in AccurateRip database
  66.      Copy OK
  67.  
  68. Track  2
  69.  
  70.      Filename C:\EAC\02 - What Kind Of Man.wav
  71.  
  72.      Peak level 99.9 %
  73.      Extraction speed 2.1 X
  74.      Track quality 100.0 %
  75.      Test CRC 889B7908
  76.      Copy CRC 889B7908
  77.      Track not present in AccurateRip database
  78.      Copy OK
  79.  
  80. Track  3
  81.  
  82.      Filename C:\EAC\03 - How Big, How Blue, How Beautiful.wav
  83.  
  84.      Peak level 100.0 %
  85.      Extraction speed 2.4 X
  86.      Track quality 100.0 %
  87.      Test CRC 56A8D27B
  88.      Copy CRC 56A8D27B
  89.      Track not present in AccurateRip database
  90.      Copy OK
  91.  
  92. Track  4
  93.  
  94.      Filename C:\EAC\04 - Queen Of Peace.wav
  95.  
  96.      Peak level 99.8 %
  97.      Extraction speed 2.6 X
  98.      Track quality 100.0 %
  99.      Test CRC A9ABA027
  100.      Copy CRC A9ABA027
  101.      Track not present in AccurateRip database
  102.      Copy OK
  103.  
  104. Track  5
  105.  
  106.      Filename C:\EAC\05 - Various Storms & Saints.wav
  107.  
  108.      Peak level 96.6 %
  109.      Extraction speed 2.7 X
  110.      Track quality 100.0 %
  111.      Test CRC 1C47E3F8
  112.      Copy CRC 1C47E3F8
  113.      Track not present in AccurateRip database
  114.      Copy OK
  115.  
  116. Track  6
  117.  
  118.      Filename C:\EAC\06 - Delilah.wav
  119.  
  120.      Peak level 100.0 %
  121.      Extraction speed 2.4 X
  122.      Track quality 99.9 %
  123.      Test CRC F6D88F00
  124.      Copy CRC F6D88F00
  125.      Track not present in AccurateRip database
  126.      Copy OK
  127.  
  128. Track  7
  129.  
  130.      Filename C:\EAC\07 - Long & Lost.wav
  131.  
  132.      Peak level 96.1 %
  133.      Extraction speed 2.8 X
  134.      Track quality 100.0 %
  135.      Test CRC 39EA734F
  136.      Copy CRC 39EA734F
  137.      Track not present in AccurateRip database
  138.      Copy OK
  139.  
  140. Track  8
  141.  
  142.      Filename C:\EAC\08 - Caught.wav
  143.  
  144.      Peak level 100.0 %
  145.      Extraction speed 3.1 X
  146.      Track quality 100.0 %
  147.      Test CRC 48E83AEC
  148.      Copy CRC 48E83AEC
  149.      Track not present in AccurateRip database
  150.      Copy OK
  151.  
  152. Track  9
  153.  
  154.      Filename C:\EAC\09 - Third Eye.wav
  155.  
  156.      Peak level 100.0 %
  157.      Extraction speed 3.2 X
  158.      Track quality 100.0 %
  159.      Test CRC 6B099400
  160.      Copy CRC 6B099400
  161.      Track not present in AccurateRip database
  162.      Copy OK
  163.  
  164. Track 10
  165.  
  166.      Filename C:\EAC\10 - St Jude.wav
  167.  
  168.      Peak level 97.0 %
  169.      Extraction speed 2.4 X
  170.      Track quality 99.9 %
  171.      Test CRC C74BCA53
  172.      Copy CRC C74BCA53
  173.      Track not present in AccurateRip database
  174.      Copy OK
  175.  
  176. Track 11
  177.  
  178.      Filename C:\EAC\11 - Mother.wav
  179.  
  180.      Peak level 100.0 %
  181.      Extraction speed 2.9 X
  182.      Track quality 99.9 %
  183.      Test CRC 86D612C6
  184.      Copy CRC 86D612C6
  185.      Track not present in AccurateRip database
  186.      Copy OK
  187.  
  188. Track 12
  189.  
  190.      Filename C:\EAC\12 - Hiding.wav
  191.  
  192.      Peak level 100.0 %
  193.      Extraction speed 3.5 X
  194.      Track quality 100.0 %
  195.      Test CRC 1BACFE1F
  196.      Copy CRC 1BACFE1F
  197.      Track not present in AccurateRip database
  198.      Copy OK
  199.  
  200. Track 13
  201.  
  202.      Filename C:\EAC\13 - Make Up Your Mind.wav
  203.  
  204.      Peak level 100.0 %
  205.      Extraction speed 3.6 X
  206.      Track quality 100.0 %
  207.      Test CRC 363880E5
  208.      Copy CRC 363880E5
  209.      Track not present in AccurateRip database
  210.      Copy OK
  211.  
  212. Track 14
  213.  
  214.      Filename C:\EAC\14 - Which Witch (Demo).wav
  215.  
  216.      Peak level 100.0 %
  217.      Extraction speed 3.8 X
  218.      Track quality 100.0 %
  219.      Test CRC 1872782D
  220.      Copy CRC 1872782D
  221.      Track not present in AccurateRip database
  222.      Copy OK
  223.  
  224. Track 15
  225.  
  226.      Filename C:\EAC\15 - Third Eye (Demo).wav
  227.  
  228.      Peak level 100.0 %
  229.      Extraction speed 3.9 X
  230.      Track quality 100.0 %
  231.      Test CRC B4E9A4B2
  232.      Copy CRC B4E9A4B2
  233.      Track not present in AccurateRip database
  234.      Copy OK
  235.  
  236. Track 16
  237.  
  238.      Filename C:\EAC\16 - How Big, How Blue, How Beautiful (Demo).wav
  239.  
  240.      Peak level 100.0 %
  241.      Extraction speed 4.0 X
  242.      Track quality 100.0 %
  243.      Test CRC DFFB587A
  244.      Copy CRC DFFB587A
  245.      Track not present in AccurateRip database
  246.      Copy OK
  247.  
  248. Track 17
  249.  
  250.      Filename C:\EAC\17 - Pure Feeling.wav
  251.  
  252.      Peak level 100.0 %
  253.      Extraction speed 4.1 X
  254.      Track quality 100.0 %
  255.      Test CRC 1A653490
  256.      Copy CRC 1A653490
  257.      Track not present in AccurateRip database
  258.      Copy OK
  259.  
  260. Track 18
  261.  
  262.      Filename C:\EAC\18 - Conductor.wav
  263.  
  264.      Peak level 96.5 %
  265.      Extraction speed 4.2 X
  266.      Track quality 100.0 %
  267.      Test CRC F5885360
  268.      Copy CRC F5885360
  269.      Track not present in AccurateRip database
  270.      Copy OK
  271.  
  272.  
  273. None of the tracks are present in the AccurateRip database
  274.  
  275. No errors occurred
  276.  
  277. End of status report
  278.  
  279. ==== Log checksum 58A974B999169CD962F668B7D5ADB9BC48278A42A95D804604104A83124AE187 ====
  280. http://downloadbox.org/florence-the-machine-how-big-how-blue-how-beautiful-2015-target-exclusive-deluxe-edition/204277/
PasteBox 2015-2016.
Just "Fancy" text.
Max size: 2Mb.